Скрипты визитов / Закусочная на колесах mp4 скачать

Закусочная на колёсах / Kuai can che (1984) BDRip 720р скачать торрент

Закусочная на колесах mp4 скачать I

Закусочная на колесах mp4 скачать II

Название: Закусочная на колёсах
Оригинальное название: Kuai can che
Выпущено: Гонконг / Golden Harvest Company Ltd. Laurenfilm S.A.
Режиссер: Саммо Хунг
В ролях: Джеки Чан, Саммо Хунг, Юэнь Бяо, Лола Форнер, Бенни Уркидез, Кит Витали, Херб Эдельман, Сьюзана Сенетес, Мерседес Альберт, Монтсеррат Хулио, Луис Монте, Ампаро Морено, Ричард ЭнДжи, Луис Паленсуэла, Хосе Санчо, Джон Шам, Ма Ву, Пол Чанг

Два энергичных китайца организовали в Барселоне передвижную харчевню. Их желтый фургончик дарит людям вкусную еду и очаровательный китайско — испанский сервис. Но однажды всю их выручку похищает хитра.

Про что фильм Закусочная на колёсах / Kuai can che (1984) BDRip 720р

Название: Закусочная на колёсах
Оригинальное название: Kuai can che
Выпущено: Гонконг / Golden Harvest Company Ltd. Laurenfilm S.A.
Режиссер: Саммо Хунг
В ролях: Джеки Чан, Саммо Хунг, Юэнь Бяо, Лола Форнер, Бенни Уркидез, Кит Витали, Херб Эдельман, Сьюзана Сенетес, Мерседес Альберт, Монтсеррат Хулио, Луис Монте, Ампаро Морено, Ричард ЭнДжи, Луис Паленсуэла, Хосе Санчо, Джон Шам, Ма Ву, Пол Чанг

Два энергичных китайца организовали в Барселоне передвижную харчевню. Их желтый фургончик дарит людям вкусную еду и очаровательный китайско — испанский сервис. Но однажды всю их выручку похищает хитрая Синьорита Сильвия. Масса самых забавных ситуаций, сумасшедшие гонки на автокухне, виртуозные сцены рукопашных поединков и, как всегда, полный задора и отточенности в движениях Джеки Чан!

Закусочная на колесах mp4 скачать III

Format/Info : Advanced Video Codec

Format profile : [email protected]/* */

Format settings, CABAC : Yes

Format settings, ReFrames : 9 frames

Codec ID : V_MPEG4/ISO/AVC

Duration : 1h 48mn

Bit rate : 3 485 Kbps

Width : 1 280 pixels

Height : 688 pixels

Display aspect ratio : 1.85:1

Frame rate mode : Constant

Frame rate : 23.976 fps

Color space : YUV

Chroma subsampling : 4:2:0

Bit depth : 8 bits

Scan type : Progressive

Stream size : 2.64 GiB (83%)

Writing library : x264 core 146 r2538 121396c

Encoding settings : cabac=1 / ref=9 / deblock=1:-1:-1 / analyse=0x3:0x113 / me=umh / subme=10 / psy=1 / psy_rd=1.00:0.00 / mixed_ref=1 / me_range=32 / chroma_me=1 / trellis=2 / 8x8dct=1 / cqm=0 / deadzone=21,11 / fast_pskip=0 / chroma_qp_offset=-2 / threads=3 / lookahead_threads=1 / sliced_threads=0 / nr=0 / decimate=1 / interlaced=0 / bluray_compat=0 / constrained_intra=0 / bframes=8 / b_pyram >
Default : Yes

Format/Info : Audio Coding 3

Mode extension : CM (complete main)

Format settings, Endianness : Big

Codec ID : A_AC3

Duration : 1h 48mn

Bit rate mode : Constant

Bit rate : 256 Kbps

Channel(s) : 2 channels

Channel positions : Front: L R

Sampling rate : 48.0 KHz

Compression mode : Lossy

Delay relative to video : 27ms

Stream size : 199 MiB (6%)

Format/Info : Audio Coding 3

Mode extension : CM (complete main)

Format settings, Endianness : Big

Codec ID : A_AC3

Duration : 1h 48mn

Bit rate mode : Constant

Bit rate : 192 Kbps

Channel(s) : 2 channels

Channel positions : Front: L R

Sampling rate : 48.0 KHz

Compression mode : Lossy

Stream size : 149 MiB (5%)

Title : 5 канал, Петербург

Format/Info : Audio Coding 3

Mode extension : CM (complete main)

Format settings, Endianness : Big

Codec ID : A_AC3

Duration : 1h 48mn

Bit rate mode : Constant

Bit rate : 192 Kbps

Channel(s) : 2 channels

Channel positions : Front: L R

Sampling rate : 48.0 KHz

Compression mode : Lossy

Stream size : 149 MiB (5%)

Title : (т/к Россия)

Codec ID : S_TEXT/UTF8

Codec ID/Info : UTF-8 Plain Text

00:00:00.000 : en:Chapter 1

00:05:00.000 : en:Chapter 2

00:10:00.000 : en:Chapter 3

00:15:00.000 : en:Chapter 4

00:20:00.000 : en:Chapter 5

00:25:00.000 : en:Chapter 6

00:30:00.000 : en:Chapter 7

00:35:00.000 : en:Chapter 8

00:40:00.000 : en:Chapter 9

00:45:00.000 : en:Chapter 10

00:50:00.000 : en:Chapter 11

00:55:00.000 : en:Chapter 12

01:00:00.000 : en:Chapter 13

Русский (AC-3, 2ch, 256 kbps) - (UniDigital)

Русский (AC-3, 2ch, 192 kbps) - (5 канал, Петербург)

Русский (AC-3, 2ch, 192 kbps) - (т/к Россия)

Закусочная на колесах mp4 скачать IV Закусочная на колесах mp4 скачать V Закусочная на колесах mp4 скачать VI

Наименование: Ма Ма Оригинальное наименование: Ma ma Жанр: Драма Выпущено: Испания / Mare

Название: Закусочная на колёсах Оригинальное название: Kuai can che Выпущено: Гонконг /

О раздаче Название: Обнаженный солдат / Беззащитный солдат Оригинальное: Naked Soldier /

О раздаче Название: Ип Ман 2 Оригинальное: Yip Man 2: Chung si chuen kei Год: 2010 Жанр:

О раздаче Название: Гонки "Пушечное ядро" Оригинальное: The Cannonball Run Год: 1981 Жанр:

О раздаче Название: Разборка в Бронксе Оригинальное: Hong faan kui / Rumble in the Bronx Год:

Порка бдсм скачать видео бесплатно
Программа бесплатно для скачивания видео с ютуба
Железный человек 2 в mp4 скачать торрент
Зигмунд фрейд психопатология обыденной жизни скачать бесплатно
Бесплатно скачать видео с ютуба на мак