Скрипты интернет магазинов / Скачать торрент властелин колец две крепости mp4

Властелин колец: Две крепости / The Lord of the Rings: The Two Towers (2002) (BDRip 720p) 60 fps

Ин ф о р м а ц и я о ф и л ь м е
Русское название: Властелин колец: Две крепости
Оригинальное название: The Lord of the Rings: The Two Towers
Год выхода: 2002
Жанр: фэнтези, драма, приключения
Режиссер: Питер Джексон
Выпущено: США, Новая Зеландия
Продолжительность: 02:59:25
Перевод: Дублированный

В ролях: Элайджа Вуд, Вигго Мортенсен, Шон Эстин, Орландо Блум, Хьюго Уивинг, Лив Тайлер, Карл Урбан, Иэн МакКеллен, Брюс Олпресс, Миранда Отто

С ю ж е т ф и л ь м а
Братство распалось, но Кольцо Всевластья должно быть уничтожено. Фродо и Сэм вынуждены доверить свои жизни Голлуму, который взялся провести их к вратам Мордора. Громадная Армия Сарумана приближается: члены братства и их союзники готовы принять бой. Битва за Средиземье продолжается

Ф а й л
Качество: BDRip 720p (исходник Blu-ray Disc)
Контейнер: MKV (расширение файла)
Видео: 1280x532, 4585 Кбит/сек, 59.940 кадр/сек, AVC, x264,, 2.40:1, 0.112 Бит/[Пиксели*Кадры]
Аудио 1: AC-3, 448 Кбит/сек, 6 канала(ов), 48,0 КГц - Дублированный / Русский
Аудио 2: AC-3, 448 Кбит/сек, 6 канала(ов), 48,0 КГц - Оригинал / Английский
Субтитры: Русские | Полные, Английские | Полные
Форсированные субтитры: Нет
Чаптеры (Главы): Есть (Подписаны)

Скачать торрент властелин колец две крепости mp4 I Скачать торрент властелин колец две крепости mp4 II

Автор Рипа: Скачать торрент властелин колец две крепости mp4 III

Format : Matroska
Format version : Version 2
File size : 7.01 GiB
Duration : 2 h 59 min
Overall bit rate : 5 592 kb/s
Movie name : The Lord of the Rings: The Two Towers.(2002).BDRip.720p.[envy].[60fps]
Encoded date : UTC 2017-02-07 08:16:06
Writing application : mkvmerge v5.8.0 ('No Sleep / Pillow') built on Sep 2 2012 15:37:04
Writing library : libebml v1.2.3 + libmatroska v1.3.0

Video
ID : 1
Format : AVC
Format/Info : Advanced Video Codec
Format profile :
Format settings, CABAC : Yes
Format settings, ReFrames : 9 frames
Codec ID : V_MPEG4/ISO/AVC
Duration : 2 h 59 min
Bit rate : 4 585 kb/s
Width : 1 280 pixels
Height : 532 pixels
Display aspect ratio : 2.40:1
Frame rate mode : Constant
Frame rate : 59.940 (60000/1001) FPS
Color space : YUV
Chroma subsampling : 4:2:0
Bit depth : 8 bits
Scan type : Progressive
Bits/(Pixel*Frame) : 0.112
Stream size : 5.75 GiB (82%)
Title : The Lord of the Rings: The Two Towers.(2002).BDRip.720p.[envy].[60fps]
Writing library : x264 core 146 r2538 121396c
Encoding settings : cabac=1 / ref=9 / deblock=1:0:0 / analyse=0x3:0x113 / me=umh / subme=10 / psy=1 / psy_rd=1.00:0.00 / mixed_ref=1 / me_range=24 / chroma_me=1 / trellis=2 / 8x8dct=1 / cqm=0 / deadzone=21,11 / fast_pskip=0 / chroma_qp_offset=-2 / threads=12 / lookahead_threads=1 / sliced_threads=0 / nr=0 / decimate=1 / interlaced=0 / bluray_compat=0 / constrained_intra=0 / bframes=5 / b_pyram >Language : English
Default : Yes
Forced : No

Audio #1
ID : 2
Format : AC-3
Format/Info : Audio Coding 3
Mode extension : CM (complete main)
Format settings, Endianness : Big
Codec ID : A_AC3
Duration : 2 h 59 min
Bit rate mode : Constant
Bit rate : 448 kb/s
Channel(s) : 6 channels
Channel positions : Front: L C R, Side: L R, LFE
Sampling rate : 48.0 kHz
Frame rate : 31.250 FPS (1536 spf)
Compression mode : Lossy
Stream size : 575 MiB (8%)
Title : Dub
Language : Russian
Default : Yes
Forced : No

Audio #2
ID : 3
Format : AC-3
Format/Info : Audio Coding 3
Mode extension : CM (complete main)
Format settings, Endianness : Big
Codec ID : A_AC3
Duration : 2 h 59 min
Bit rate mode : Constant
Bit rate : 448 kb/s
Channel(s) : 6 channels
Channel positions : Front: L C R, Side: L R, LFE
Sampling rate : 48.0 kHz
Frame rate : 31.250 FPS (1536 spf)
Compression mode : Lossy
Stream size : 575 MiB (8%)
Title : Eng
Language : English
Default : No
Forced : No

Text #1
ID : 4
Format : UTF-8
Codec ID : S_TEXT/UTF8
Codec ID/Info : UTF-8 Plain Text
Title : Rus full
Language : Russian
Default : No
Forced : No

Text #2
ID : 5
Format : UTF-8
Codec ID : S_TEXT/UTF8
Codec ID/Info : UTF-8 Plain Text
Title : Eng full
Language : English
Default : No
Forced : No

Menu
00:00:00.000 : :The Foundations of Stone
00:04:08.748 : :The Taming of Smeagol
00:11:32.150 : :The Uruk-hai
00:12:17.695 : :The Three Hunters
00:14:27.200 : :The Burning of the Westfold
00:17:30.549 : :The Banishment of Eomer
00:20:18.592 : :On the Trail of the Uruk-hai
00:21:12.730 : :Night Camp at Fangorn
00:24:11.075 : :The Riders of Rohan
00:28:19.031 : :Traces of Merry and Pippin
00:30:50.766 : :Treebeard
00:34:19.683 : :The Passage of the Marshes
00:41:18.601 : :The White Rider
00:46:55.271 : :Fangorn Forest
00:47:35.436 : :The Black Gate is Closed
00:52:53.128 : :The King of the Golden Hall
01:04:21.649 : :Simbelmyne on the Burial Mounds
01:06:14.429 : :The King's Decision
01:09:25.203 : :A Daughter of Kings
01:10:51.247 : :Exodus From Edoras
01:11:55.853 : :The Forests of Ithilien
01:13:38.497 : :Gollum and Smeagol
01:16:08.981 : :Of Herbs and Stewed Rabbit
01:20:35.998 : :Dwarf Women
01:21:32.387 : :The Evenstar
01:26:01.406 : :The Wolves of Isengard
01:32:39.304 : :Helm's Deep
01:35:05.909 : :Isengard Unleashed
01:37:42.398 : :The Grace of the Valar
01:39:22.039 : :Arwen's Fate
01:43:02.718 : :The Story Foreseen From Lorien
01:45:28.697 : :The Window on the West
01:48:24.415 : :The Forbidden Pool
01:55:44.813 : :Aragorn's Return
02:01:18.062 : :Entmoot
02:02:37.934 : :The Glittering Caves
02:04:36.177 : :"Where Is the Horse and the Rider?"
02:06:20.907 : :The Host of the Eldar
02:09:53.327 : :The Battle of the Hornburg
02:16:09.286 : :Old Entish
02:17:48.635 : :The Breach of the Deeping Wall
02:21:13.465 : :The Entmoor Decides
02:22:58.612 : :Retreat to the Hornburg
02:28:55.552 : :Master Peregrin's Plan
02:30:20.345 : :Osgiliath
02:30:55.088 : :The Last March of the Ents
02:33:11.307 : :The Nazgul Attack
02:35:43.292 : :Forth Eorlingas
02:40:21.779 : :The Flooding of Isengard
02:42:49.969 : :The Tale That Really Mattered.
02:47:36.255 : :"The Battle for Middle-Earth Is About to Begin"
02:49:15.937 : :Gollum's Plan
02:51:42.459 : :End Credits

Скачать торрент властелин колец две крепости mp4 IV Скачать торрент властелин колец две крепости mp4 V Скачать торрент властелин колец две крепости mp4 VI
 the.lord.of.the.rings.the.two.towers.2002.bdrip.720p.envy.60fps.mkv.torrent
[35,52 Kb] (cкачиваний: 168)

Скачать бесплатно секс видео скачать
Видео на английском для детей скачать бесплатно
Интересное видео про животных смотреть бесплатно
Скачать бесплатно видео в торенте
Скачать книгу василиса володина астрология обольщения бесплатно