Скрипты интернет магазина / Лето одноклассники любовь mp4 скачать

Лето. Одноклассники. Любовь / LOL

Фильм Лето. Одноклассники. Любовь / LOL скачать бесплатно в професcиональной озвучке или посмотреть онлайн, чтобы начать просмотр нужно нажать на кнопку в плеере и спустя несколько секунд воспроизведение фильма начнется в хорошем HD (High-Definition) качестве 720p или 1080p. Напомним, что посмотреть онлайн вы можете не только на компьютере, но и на андроид (Android), iPhone и iPad. Приятного просмотра!

Лето одноклассники любовь mp4 скачать I

Лето. Одноклассники. Любовь / LOL скачать бесплатно или смотреть онлайн

Лола, или Лол, как ее зовут друзья, живет в пригороде Чикаго, как и все, прогуливает занятия, чатится с подругами, устраивает вечеринки и мечтает о настоящей любви. Поездка в Париж - это шанс для Лолы и ее одноклассников оторваться по полной. Безудержный шопинг, бесконтрольные ночные вылазки и первое романтическое свидание - все это оказывается под угрозой. Ведь мать Лолы, мягко говоря, не обрадована результатами ее экзаменов.

Возраст: зрителям, достигшим 16 лет
Продолжительность: 97 мин. / 01:37

Слоган: "От любви до ненависти. Одна SMS"
Роли дублировали: Ирина Киреева, Алёна Ивченко, Николай Быстров, Вероника Саркисова, Даниил Эльдаров
Сценарий: Нанс Делгадо, Лиза Азуэлос, Камир Айнуз
Продюсер: Тиш Сайрус, Эстебан Мартин, Майкл Шамберг
Оператор: Киран МакГиган
Композитор: Роб Симонсен
Художник: Хоуп Хэнэфин, Марк Бенасерраф, Хэппи Масси
Монтаж: Майрон И. Керстайн
Студия: Double Feature Films, Lol Productions, Mandate Pictures, PIC Agency
Бюджет: $11 000 000
Сборы в мире: $5 509 002
Сборы в России: $1 108 671

Премьера (мир): 10 февраля 2012
Премьера (РФ): 28 июня 2012, "Вольга"

Релиз на DVD: 31 июля 2012, "Вольга"
Релиз на Blu-Ray: 31 июля 2012, "Вольга"

Зрители: Германия - 384.3 тыс. Россия - 208.2 тыс. Италия - 103.2 тыс.
Рейтинг MPAA: детям до 13 лет просмотр не желателен

На нашем сайте имеется возможность смотреть фильмы онлайн в HD (High-Definition) качестве, для этого воспользуйтесь переключателем качества видео в нижнем правом углу плеера. Обратите внимание на то, что чем выше будет качество видео, тем больше времени будет занимать загрузка видео и увеличится количество передаваемого трафика.

Лето одноклассники любовь mp4 скачать II

Дата Название раздачи (ссылка) Размер Скачали
26 января 2016 06:53 Лето. Одноклассники. Любовь / LOL (2012) HDRip-AVC | D.torrent

926 kbps avg, 0.157 bit/pixel
Аудио 1: VBR, 48.0 KHz / 24.0 KHz, 2 channels (Front: L R).

74.50 kbps avg | RUS
Аудио 1: VBR, 48.0 KHz / 24.0 KHz, 2 channels (Front: L R).

74.50 kbps avg | ENG

744,89 Mb 25 26 января 2016 06:53 Лето. Одноклассники. Любовь / LOL (2012) BDRip-AVC от potroks | D | Лицензия.torrent

448.00 kbps avg |RUS
Аудио#2: 48 kHz, AC3 Dolby Digital, 3/2 (L,C,R,l,r) + LFE ch.

448.00 kbps avg |ENG

2,17 Gb 9 26 января 2016 06:53 Лето. Одноклассники. Любовь / LOL (2012) BDRip от HELLYWOOD.torrent

1692 kbps avg, 0.32 bit/pixel
Аудио #1: 48 kHz, AC3 Dolby Digital, 3/2 (L,C,R,l,r) + LFE ch.

448 kbps|DUB|
Аудио #2: 48 kHz, AC3 Dolby Digital, 3/2 (L,C,R,l,r) + LFE ch.

1,45 Gb 7 26 января 2016 06:53 Лето. Одноклассники. Любовь / LOL (2012) BDRip от HQCLUB.torrent

1691 kbps avg, 0.32 bit/pixel
Аудио #1: 48 kHz, AC3 Dolby Digital, 3/2 (L,C,R,l,r) + LFE ch.

448 kbps avg|Russia - DUB|
Аудио #2: 48 kHz, AC3 Dolby Digital, 2/0 (L,R) ch.

192 kbps avg|UKR - MVO.K1|
Аудио #3: 48 kHz, AC3 Dolby Digital, 3/2 (L,C,R,l,r) + LFE ch.

448 kbps avg|English - ORIGINAL|

1,45 Gb 13 26 января 2016 06:53 Лето. Одноклассники. Любовь / LOL (2012) DVD5 от New-Team | сжатый.torrent

6139 kbps, Auto Pan&Scan, Auto Letterboxed
Аудио: 48 kHz, AC3, 6 ch, 448 kbps, русский

4,35 Gb 3 26 января 2016 06:53 Лето. Одноклассники. Любовь / LOL (2012) DVD9 от New-Team.torrent 6,07 Gb 6 26 января 2016 06:53 Лето. Одноклассники. Любовь / LOL (2012) Blu-ray 1080i от HDCLUB и New-Team | лицензия.torrent 18,91 Gb 5 26 января 2016 06:53 Лето. Одноклассники. Любовь / LOL (2012) BDRip 1080p | от New-Team.torrent

9800 kbps avg, 0.266 bit/pixel
Аудио 1: 48 kHz, AC3, 6 ch, 448 kbps, русский
Аудио 2: 48 kHz, DTS, 6 ch, 1536 kbps, английский
Видео: Идентификатор : 1 Формат : AVC Формат/Информация : Advanced V >Аудио #1: Идентификатор : 2 Формат : AC-3 Формат/Информация : Audio Coding 3 Расширение режима : CM (complete main) Параметр Endianness формата : Big Идентификатор кодека : A_AC3 Продолжительность : 1 ч. 37 м. Вид битрейта : Постоянный Битрейт : 448 Кбит/сек Каналы : 6 каналов Расположение каналов : Front: L C R, Side: L R, LFE Частота : 48,0 КГц Битовая глубина : 16 бит Метод сжатия : С потерями Задержка видео : 930 мс. Размер потока : 312 Мбайт (4%) Язык : Russian Default : Да Forced : Нет
Аудио #2: Идентификатор : 3 Формат : DTS Формат/Информация : Digital Theater Systems Идентификатор кодека : A_DTS Продолжительность : 1 ч. 37 м. Вид битрейта : Постоянный Битрейт : 1510 Кбит/сек Каналы : 6 каналов Расположение каналов : Front: L C R, Side: L R, LFE Частота : 48,0 КГц Битовая глубина : 24 бит Метод сжатия : С потерями Размер потока : 1,03 Гбайт (13%) Язык : English Default : Нет Forced : Нет

7,96 Gb 3 26 января 2016 06:53 Лето. Одноклассники. Любовь / LOL (2012) BDRip 720p от New-Team.torrent

4000 kbps avg, 0.244 bit/pixel
Аудио 1: 48 kHz, AC3, 6 ch, 448 kbps, русский
Аудио 2: 48 kHz, DTS, 6 ch, 1536 kbps, английский
Видео: Идентификатор : 1 Формат : AVC Формат/Информация : Advanced V >Аудио #1: Идентификатор : 2 Формат : AC-3 Формат/Информация : Audio Coding 3 Расширение режима : CM (complete main) Параметр Endianness формата : Big Идентификатор кодека : A_AC3 Продолжительность : 1 ч. 37 м. Вид битрейта : Постоянный Битрейт : 448 Кбит/сек Каналы : 6 каналов Расположение каналов : Front: L C R, Side: L R, LFE Частота : 48,0 КГц Битовая глубина : 16 бит Метод сжатия : С потерями Задержка видео : 930 мс. Размер потока : 312 Мбайт (8%) Язык : Russian Default : Да Forced : Нет
Аудио #2: Идентификатор : 3 Формат : DTS Формат/Информация : Digital Theater Systems Идентификатор кодека : A_DTS Продолжительность : 1 ч. 37 м. Вид битрейта : Постоянный Битрейт : 1510 Кбит/сек Каналы : 6 каналов Расположение каналов : Front: L C R, Side: L R, LFE Частота : 48,0 КГц Битовая глубина : 24 бит Метод сжатия : С потерями Размер потока : 1,03 Гбайт (25%) Язык : English Default : Нет Forced : Нет

4,04 Gb 8 26 января 2016 06:53 Лето. Одноклассники. Любовь / LOL (2012) HDRip от New-Team.torrent

947 kbps avg, 0.227 bit/pixel
Аудио: 48 kHz, MP3, 2 ch, 128 kbps
Видео: Идентификатор : 0 Формат : MPEG-4 Visual Профиль формата : Advanced [email protected] Параметр BVOP формата : 2 Параметр QPel формата : Нет Параметр GMC формата : Без точки перехода Параметр матрицы формата : Default (MPEG) Идентификатор кодека : XVID Идентификатор кодека/Подсказка : XviD Продолжительность : 1 ч. 36 м. Битрейт : 947 Кбит/сек Ширина : 640 пикселей Высота : 272 пикселя Соотношение сторон : 2,35:1 Частота кадров : 23,976 кадра/сек Цветовое пространство : YUV Субдискретизация насыщенности : 4:2:0 Битовая глубина : 8 бит Тип развёртки : Прогрессивная Метод сжатия : С потерями Бит/(Пиксели*Кадры) : 0.227 Размер потока : 651 Мбайт (87%) Библиотека кодирования : XviD 1.2.1 (UTC 2008-12-04)
Аудио: Идентификатор : 1 Формат : MPEG Audio Версия формата : Version 1 Профиль формата : Layer 3 Режим : Joint stereo Идентификатор кодека : 55 Идентификатор кодека/Подсказка : MP3 Продолжительность : 1 ч. 36 м. Вид битрейта : Постоянный Битрейт : 128 Кбит/сек Каналы : 2 канала Частота : 48,0 КГц Метод сжатия : С потерями Задержка видео : 912 мс. Размер потока : 88,0 Мбайт (12%) Выравнивание : Разделение по промежуткам Продолжительность промежутка : 42 мс. (1,00 видеокадр) Время предзагрузки промежутка : 504 мс.

745,36 Mb 5 26 января 2016 06:53 Лето. Одноклассники. Любовь / LOL (2012) HDRip от New-Team.torrent

1700 kbps avg, 0.324 bit/pixel
Аудио: 48 kHz, AC3, 6 ch, 448 kbps
Видео: Идентификатор : 0 Формат : MPEG-4 Visual Профиль формата : Advanced [email protected] Параметр BVOP формата : 2 Параметр QPel формата : Нет Параметр GMC формата : Без точки перехода Параметр матрицы формата : Default (MPEG) Идентификатор кодека : XVID Идентификатор кодека/Подсказка : XviD Продолжительность : 1 ч. 36 м. Битрейт : 1700 Кбит/сек Ширина : 720 пикселей Высота : 304 пикселя Соотношение сторон : 2,35:1 Частота кадров : 23,976 кадра/сек Цветовое пространство : YUV Субдискретизация насыщенности : 4:2:0 Битовая глубина : 8 бит Тип развёртки : Прогрессивная Метод сжатия : С потерями Бит/(Пиксели*Кадры) : 0.324 Размер потока : 1,15 Гбайт (79%) Библиотека кодирования : XviD 1.2.1 (UTC 2008-12-04)
Аудио: Идентификатор : 1 Формат : AC-3 Формат/Информация : Audio Coding 3 Расширение режима : CM (complete main) Параметр Endianness формата : Big Идентификатор кодека : 2000 Продолжительность : 1 ч. 36 м. Вид битрейта : Постоянный Битрейт : 448 Кбит/сек Каналы : 6 каналов Расположение каналов : Front: L C R, Side: L R, LFE Частота : 48,0 КГц Битовая глубина : 16 бит Метод сжатия : С потерями Задержка видео : 930 мс. Размер потока : 310 Мбайт (21%) Выравнивание : Разделение по промежуткам Продолжительность промежутка : 42 мс. (1,00 видеокадр) Время предзагрузки промежутка : 500 мс.

Секс видео с карликами бесплатно
Скачать видео онлайн бесплатно на телефон
Скачать видео бесплатно ядерный взрыв
Скачать видео с ютуба по ссылке бесплатно
Скачать бесплатно видео немецкий алфавит