Разные скрипты / Скачать бесплатно видео спокойной ночи малыши

Спокойной ночи, малыши! (2014) SATRip (117 выпусков)

Статистика раздачи
Размер: 14.85 ГБ | Добавлен: 01 дек 2015, 00:20 | Скачали: 4
Сидеров: 16 [0 байт/сек] Личеров: 12 [0 байт/сек]

Добавлено: 01 дек 2015, 00:20

Скачать бесплатно видео спокойной ночи малыши I

  • Скачать бесплатно видео спокойной ночи малыши II

Производство: Россия, телеканал "Россия / Россия HD / Россия- К / ТРК Класс"
Жанр: Детский, передача

Ведущий: Оксана Фёдорова, Анна Михалкова, Дмитрий Маликов

Описание:
"Спокойной ночи, малыши" - это одна из самых популярных детских передач на отечественном телевидении. Сегодня уже третье поколение детей каждый вечер засыпает только лишь после просмотра любимой передачи. "Спокойной ночи, малыши" интересны детям в любом возрасте: малыши слушают мелодии, детки постарше интересуются героями передачи – дружными и забавными зверушками, а еще более старшие ребята с нетерпением ждут мультфильма. Каждый выпуск передачи начинается с познавательной сценки, разыгранной кукольными героями передачи и ведущим, в которой просто и ненавязчиво рассказывается малышам о том "Что такое хорошо, и что такое плохо". Далее следует мультик, который обычно близок по теме к вступительной части.

Продолжительность:

00:10:00 выпуск
Качество видео: SATRip

Формат: AVI
Видеокодек: XviD
Битрейт видео:

1600 kbps avg
Размер кадра: 720x544, 720х400
Аудиокодек: AC3, 2 ch
Битрейт аудио: 192 kbps avg

Общее
Полное имя : E:\RAZVIDEODET\Спокойной ночи, малыши 2014 SATRip\Спокойной ночи, малыши(2014.01.13).2014.XviD.SATRip.avi
Формат : AVI
Формат/Информация : Audio Video Interleave
Размер файла : 130 Мбайт
Продолжительность : 10 м.
Общий поток : 1728 Кбит/сек
Программа кодирования : VirtualDubMod 1.5.10.3 | [url=http://www.virtualdub-fr.org]www.virtualdub-fr.org[/url] || (build 2550/release)
Библиотека кодирования : VirtualDubMod build 2550/release

Видео
Идентификатор : 0
Формат : MPEG-4 Visual
Профиль формата : Advanced
Параметр BVOP формата : 1
Параметр QPel формата : Нет
Параметр GMC формата : Без точки перехода
Параметр матрицы формата : Выборочная
Идентификатор кодека : XVID
Идентификатор кодека/Подсказка : XviD
Продолжительность : 10 м.
Битрейт : 1526 Кбит/сек
Ширина : 720 пикселей
Высота : 544 пикселя
Соотношение сторон : 4:3
Частота кадров : 25,000 кадров/сек
Цветовое пространство : YUV
Субдискретизация насыщенности : 4:2:0
Битовая глубина : 8 бит
Тип развёртки : Прогрессивная
Метод сжатия : С потерями
Бит/(Пиксели*Кадры) : 0.156
Размер потока : 115 Мбайт (88%)
Библиотека кодирования : XviD 73

Аудио
Идентификатор : 1
Формат : AC-3
Формат/Информация : Audio Coding 3
Расширение режима : CM (complete main)
Параметр Endianness формата : Big
Идентификатор кодека : 2000
Продолжительность : 10 м.
Вид битрейта : Постоянный
Битрейт : 192 Кбит/сек
Каналы : 2 канала
Расположение каналов : Front: L R
Частота : 48,0 КГц
Битовая глубина : 16 бит
Метод сжатия : С потерями
Размер потока : 14,4 Мбайт (11%)
Выравнивание : Разделение по промежуткам
Продолжительность промежутка : 40 мс. (1,00 видеокадр)
Время предзагрузки промежутка : 500 мс.

Общее
Полное имя : E:\RAZVIDEODET\Спокойной ночи, малыши 2014 SATRip\Спокойной ночи, малыши(2014.08.13).2014.XviD.SATRip.avi
Формат : AVI
Формат/Информация : Audio Video Interleave
Размер файла : 130 Мбайт
Продолжительность : 10 м.
Общий поток : 1755 Кбит/сек
Программа кодирования : VirtualDubMod 1.5.10.3 | [url=http://www.virtualdub-fr.org]www.virtualdub-fr.org[/url] || (build 2550/release)
Библиотека кодирования : VirtualDubMod build 2550/release

Видео
Идентификатор : 0
Формат : MPEG-4 Visual
Профиль формата : Advanced
Параметр BVOP формата : 1
Параметр QPel формата : Нет
Параметр GMC формата : Без точки перехода
Параметр матрицы формата : Выборочная
Идентификатор кодека : XVID
Идентификатор кодека/Подсказка : XviD
Продолжительность : 10 м.
Битрейт : 1553 Кбит/сек
Ширина : 720 пикселей
Высота : 400 пикселей
Соотношение сторон : 16:9
Частота кадров : 25,000 кадров/сек
Цветовое пространство : YUV
Субдискретизация насыщенности : 4:2:0
Битовая глубина : 8 бит
Тип развёртки : Прогрессивная
Метод сжатия : С потерями
Бит/(Пиксели*Кадры) : 0.216
Размер потока : 115 Мбайт (88%)
Библиотека кодирования : XviD 73

Аудио
Идентификатор : 1
Формат : AC-3
Формат/Информация : Audio Coding 3
Расширение режима : CM (complete main)
Параметр Endianness формата : Big
Идентификатор кодека : 2000
Продолжительность : 10 м.
Вид битрейта : Постоянный
Битрейт : 192 Кбит/сек
Каналы : 2 канала
Расположение каналов : Front: L R
Частота : 48,0 КГц
Битовая глубина : 16 бит
Метод сжатия : С потерями
Размер потока : 14,3 Мбайт (11%)
Выравнивание : Разделение по промежуткам
Продолжительность промежутка : 40 мс. (1,00 видеокадр)
Время предзагрузки промежутка : 500 мс.

Программы для монтажа видео бесплатно скачать
Мультсериал черепашки ниндзя скачать бесплатно без регистрации
Татьяны зинкевич евстигнеевой
Ментовские войны 3 сезон скачать mp4
Смотреть онлайн бесплатно видео изнасилования