Движки сайтов / Далласский клуб покупателей скачать торрент mp4

Далласский клуб покупателей / Dallas Buyers Club

Фильм Далласский клуб покупателей / Dallas Buyers Club скачать бесплатно в професcиональной озвучке или посмотреть онлайн, чтобы начать просмотр нужно нажать на кнопку в плеере и спустя несколько секунд воспроизведение фильма начнется в хорошем HD (High-Definition) качестве 720p или 1080p. Напомним, что посмотреть онлайн вы можете не только на компьютере, но и на андроид (Android), iPhone и iPad. Приятного просмотра!

Далласский клуб покупателей скачать торрент mp4 I

Далласский клуб покупателей / Dallas Buyers Club скачать бесплатно или смотреть онлайн

Реальная история Рона Вудруфа, техасского электрика, у которого в 1985 году обнаружили СПИД. Врачи отвели ему всего 30 дней, но он не пожелал смириться со смертным приговором и сумел продлить свою жизнь, принимая нетрадиционные лекарства, а затем наладил подпольный бизнес по продаже их другим больным.

Возраст: зрителям, достигшим 18 лет
Продолжительность: 118 мин. / 01:58

Слоган: "Dare to Live"
Роли дублировали: Дмитрий Поляновский, Сергей Смирнов, Василиса Воронина, Александр Носков, Владимир Рыбальченко
Сценарий: Крэйг Бортен, Мелисса Уоллэк
Продюсер: Робби Бреннер, Дэвид Л. Бушнелл, Рэйчел Винтер
Оператор: Ив Беланже
Художник: Курт и Барт, Джон Пэйно, Хавьера Варас
Монтаж: Жан-Марк Валле, Мартин Пенса
Студия: CE, Evolution Independent, r2 films, Truth Entertainment (II), Voltage Pictures
Бюджет: $5 000 000
Сборы в США: $27 298 285
Сборы в мире: + $27 900 000 = $55 198 285
Сборы в России: $1 396 312

Премьера (мир): 7 сентября 2013
Премьера (РФ): 27 февраля 2014, "Cinema Prestige"

Релиз на DVD: 8 апреля 2014, "CD Land"

Зрители: Франция - 210.6 тыс. Испания - 203 тыс. Россия - 176.3 тыс.
Рейтинг MPAA: лицам до 17 лет обязательно присутствие взрослого

На нашем сайте имеется возможность смотреть фильмы онлайн в HD (High-Definition) качестве, для этого воспользуйтесь переключателем качества видео в нижнем правом углу плеера. Обратите внимание на то, что чем выше будет качество видео, тем больше времени будет занимать загрузка видео и увеличится количество передаваемого трафика.

Далласский клуб покупателей скачать торрент mp4 II

Дата Название раздачи (ссылка) Размер Скачали
15 февраля 2016 11:37 Далласский клуб покупателей / Dallas Buyers Club (2013) BDRip от New-Team | D | Лицензия.torrent

753 kbps avg, 0.176 bit/pixel
Аудио: 48 kHz, MPEG Layer 3, 2 ch, 128.00 kbps Constant |Дубляж|

744,4 Mb 36 15 февраля 2016 11:37 Далласский клуб покупателей / Dallas Buyers Club (2013) BDRip-AVC от HELLYWOOD | D.torrent 2,13 Gb 23 15 февраля 2016 11:37 Далласский клуб покупателей / Dallas Buyers Club (2013) BDRip-AVC | iPad | D,L.torrent 2,25 Gb 4 15 февраля 2016 11:37 Далласский клуб покупателей / Dallas Buyers Club (2013) BDRip от HQCLUB | Лицензия.torrent

1834 kbps avg, 0.35 bit/pixel
Аудио #1: 48 kHz, AC3 Dolby Digital, 3/2 (L,C,R,l,r) + LFE ch.

384 kbps avg (DUB) R5
Аудио #2: 48 kHz, AC3 Dolby Digital, 3/2 (L,C,R,l,r) + LFE ch.

448 kbps avg (ENG)
Аудио #3: 48 kHz, AC3 Dolby Digital, 3/2 (L,C,R,l,r) + LFE ch.

384 kbps avg (UKR.MVO)(отдельно)
Аудио #4: 48 kHz, AC3 Dolby Digital, 3/2 (L,C,R,l,r) + LFE ch.

448 kbps avg (MVO.BAIBAKO)(отдельно)
Аудио #5: 48 kHz, AC3 Dolby Digital, 3/2 (L,C,R,l,r) + LFE ch.

448 kbps avg (AVO.VIZGUNOV)(отдельно)

2,18 Gb 15 15 февраля 2016 11:36 Далласский клуб покупателей / Dallas Buyers Club (2013) BDRip 720p от Leonardo and Scarabey | Лицензия.torrent 3,54 Gb 23 15 февраля 2016 11:36 Далласский клуб покупателей / Dallas Buyers Club (2013) HDRip от Scarabey | Лицензия.torrent

1573 kbps avg, 0.30 bit/pixel
Аудио: 48 kHz, AC3 Dolby Digital, 2/0 (L,R) ch.

1,45 Gb 25 15 февраля 2016 11:36 Далласский клуб покупателей / Dallas Buyers Club (2013) HDRip от Scarabey | Лицензия.torrent

755 kbps avg, 0.18 bit/pixel
Аудио: 48 kHz, MPEG Layer 3, 2 ch.

746,17 Mb 13 15 февраля 2016 11:36 Далласский клуб покупателей / Dallas Buyers Club (2013) BDRip-AVC от MediaClub | D, A | Лицензия.torrent 2,49 Gb 4 15 февраля 2016 11:36 Далласский клуб покупателей / Dallas Buyers Club (2013) HDRip-AVC от New-Team | Лицензия.torrent

825 Kbps, 0.140 bit/pixel
Аудио: 48 KHz / 24 KHz, AAC HE-AAC / LC, 2/0 (L,R) ch.

744,59 Mb 6 15 февраля 2016 11:36 Далласский клуб покупателей / Dallas Buyers Club (2013) DVD5 от New-Team | D | сжатый.torrent 4,37 Gb 1 15 февраля 2016 11:36 Далласский клуб покупателей / Dallas Buyers Club (2013) DVD9 R5 от New-Team | D | лицензия.torrent 6,75 Gb 2 15 февраля 2016 11:36 Далласский клуб покупателей / Dallas Buyers Club (2013) BDRip-AVC от New-Team | D | лицензия.torrent

1842 kbps avg, Бит/(Пиксели*Кадры) = 0.176
Аудио 1: Russian: 48 kHz, Dolby AC3, 6 ch, 384 kbps Const
Аудио 2: English: 48 kHz, Dolby AC3, 6 ch, 448 kbps Const
Видео: Идентификатор : 1 Формат : AVC Формат/Информация : Advanced V >Аудио #1: Идентификатор : 2 Формат : AC-3 Формат/Информация : Audio Coding 3 Расширение режима : CM (complete main) Параметр Endianness формата : Big Идентификатор кодека : A_AC3 Продолжительность : 1 ч. 56 м. Вид битрейта : Постоянный Битрейт : 384 Кбит/сек Каналы : 6 каналов Расположение каналов : Front: L C R, Side: L R, LFE Частота : 48,0 КГц Битовая глубина : 16 бит Метод сжатия : С потерями Размер потока : 321 Мбайт (14%) Язык : Russian Default : Да Forced : Нет
Аудио #2: Идентификатор : 3 Формат : AC-3 Формат/Информация : Audio Coding 3 Расширение режима : CM (complete main) Параметр Endianness формата : Big Идентификатор кодека : A_AC3 Продолжительность : 1 ч. 56 м. Вид битрейта : Постоянный Битрейт : 448 Кбит/сек Каналы : 6 каналов Расположение каналов : Front: L C R, Side: L R, LFE Частота : 48,0 КГц Битовая глубина : 16 бит Метод сжатия : С потерями Размер потока : 375 Мбайт (17%) Язык : English Default : Нет Forced : Нет

2,18 Gb 3 15 февраля 2016 11:36 Далласский клуб покупателей / Dallas Buyers Club (2013) BDRip от New-Team | D | лицензия.torrent 1,46 Gb 11 15 февраля 2016 11:36 Далласский клуб покупателей / Dallas Buyers Club (2013) BDRip 720p | D, A.torrent 4,32 Gb 4 15 февраля 2016 11:36 Далласский клуб покупателей / Dallas Buyers Club (2013) BDRip 720p от New-Team | D, A | лицензия.torrent

6496 kbps avg, Бит/(Пиксели*Кадры) = 0.396
Аудио 1: Russian: 48 kHz, Dolby AC3, 6 ch, 384 kbps Const | Дублированный |
Аудио 2: Russian: 48 kHz, DTS, 6ch, 1536 kbps Const | Одноголосый закадровый, C.Визгунов |
Аудио 3: English: 48 kHz, DTS, 6ch, 1536 kbps Const
Видео: Идентификатор : 1 Формат : AVC Формат/Информация : Advanced V >Аудио #1: Идентификатор : 2 Формат : AC-3 Формат/Информация : Audio Coding 3 Расширение режима : CM (complete main) Параметр Endianness формата : Big Идентификатор кодека : A_AC3 Продолжительность : 1 ч. 56 м. Вид битрейта : Постоянный Битрейт : 384 Кбит/сек Каналы : 6 каналов Расположение каналов : Front: L C R, Side: L R, LFE Частота : 48,0 КГц Битовая глубина : 16 бит Метод сжатия : С потерями Размер потока : 321 Мбайт (4%) Заголовок : DUB AC3 384 kbps Язык : Russian Default : Да Forced : Нет
Аудио #2: Идентификатор : 3 Формат : DTS Формат/Информация : Digital Theater Systems Режим : 16 Параметр Endianness формата : Big Идентификатор кодека : A_DTS Продолжительность : 1 ч. 56 м. Вид битрейта : Постоянный Битрейт : 1509 Кбит/сек Каналы : 6 каналов Расположение каналов : Front: L C R, Side: L R, LFE Частота : 48,0 КГц Битовая глубина : 24 бит Метод сжатия : С потерями Размер потока : 1,23 Гбайт (15%) Заголовок : Vizgunov DTS 5.1 1509Kbps Язык : Russian Default : Нет Forced : Нет
Аудио #3: Идентификатор : 4 Формат : DTS Формат/Информация : Digital Theater Systems Режим : 16 Параметр Endianness формата : Big Идентификатор кодека : A_DTS Продолжительность : 1 ч. 56 м. Вид битрейта : Постоянный Битрейт : 1509 Кбит/сек Каналы : 6 каналов Расположение каналов : Front: L C R, Side: L R, LFE Частота : 48,0 КГц Битовая глубина : 24 бит Метод сжатия : С потерями Размер потока : 1,23 Гбайт (15%) Заголовок : English DTS 5.1 1509Kbps Язык : English Default : Нет Forced : Нет

8,1 Gb 5 15 февраля 2016 11:36 Далласский клуб покупателей / Dallas Buyers Club (2013) HDRip | D.torrent 2,05 Gb 1 15 февраля 2016 11:36 Далласский клуб покупателей / Dallas Buyers Club (2013) BDRemux 1080p от New-Team | D, A | лицензия.torrent

31993 kbps avg
Аудио 1: Russian: 48 kHz, Dolby AC3, 6 ch, 384 kbps Const | Дублированный |
Аудио 2: Russian: 48 kHz/24-bit, DTS-HD MA 5.1.

3173.00 kbps avg | Одноголосый закадровый, C.Визгунов |
Аудио 3: English: 48 kHz/24-bit, DTS-HD MA 5.1.

3102.00 kbps avg
Видео: Идентификатор : 1 Формат : AVC Формат/Информация : Advanced V >Аудио #1: Идентификатор : 2 Формат : AC-3 Формат/Информация : Audio Coding 3 Расширение режима : CM (complete main) Параметр Endianness формата : Big Идентификатор кодека : A_AC3 Продолжительность : 1 ч. 56 м. Вид битрейта : Постоянный Битрейт : 384 Кбит/сек Каналы : 6 каналов Расположение каналов : Front: L C R, Side: L R, LFE Частота : 48,0 КГц Битовая глубина : 16 бит Метод сжатия : С потерями Размер потока : 321 Мбайт (1%) Язык : Russian Default : Да Forced : Нет
Аудио #2: Идентификатор : 3 Формат : DTS Формат/Информация : Digital Theater Systems Профиль формата : MA / Core Режим : 16 Параметр Endianness формата : Big Идентификатор кодека : A_DTS Продолжительность : 1 ч. 56 м. Вид битрейта : Переменный Битрейт : Неизвестно / 1509 Кбит/сек Каналы : 6 каналов Расположение каналов : Front: L C R, Side: L R, LFE Частота : 48,0 КГц Битовая глубина : 24 бит Метод сжатия : Без потерь / Lossy Язык : Russian Default : Нет Forced : Нет
Аудио #3: Идентификатор : 4 Формат : DTS Формат/Информация : Digital Theater Systems Профиль формата : MA / Core Режим : 16 Параметр Endianness формата : Big Идентификатор кодека : A_DTS Продолжительность : 1 ч. 56 м. Вид битрейта : Переменный Битрейт : Неизвестно / 1509 Кбит/сек Каналы : 6 каналов Расположение каналов : Front: L C R, Side: L R, LFE Частота : 48,0 КГц Битовая глубина : 24 бит Метод сжатия : Без потерь / Lossy Язык : English Default : Нет Forced : Нет

30,97 Gb 3 15 февраля 2016 11:36 Далласский клуб покупателей / Dallas Buyers Club (2013) HDRip от Scarabey | Чистый звук.torrent

1569 kbps avg, 0.30 bit/pixel
Аудио: 48 kHz, AC3 Dolby Digital, 2/0 (L,R) ch.

1,45 Gb 3 15 февраля 2016 11:36 Далласский клуб покупателей / Dallas Buyers Club (2013) BDRip от New-Team | D | Чистый звук.torrent

1574 kbps avg, 0.300 bit/pixel
Аудио: 48 kHz, AC3 Dolby Digital, 2/0 (L,R) ch, 192 kbps Constant |Дубляж|

1,45 Gb 3 15 февраля 2016 11:36 Далласский клуб покупателей / Dallas Buyers Club (2013) Blu-Ray | P.torrent

31993 kbps
Звук: 1. DTS-HD Master Audio Russian 3133 kbps 5.1 / 48 kHz / 3133 kbps / 24-bit (DTS Core: 5.1 / 48 kHz / 1509 kbps / 24-bit) (MVO - Baibako). DTS-HD Master Audio English 3102 kbps 5.1 / 48 kHz / 3102 kbps / 24-bit (DTS Core: 5.1 / 48 kHz / 1509 kbps / 24-bit)
Субтитры: (PGS) English, Russian

37,2 Gb 1 15 февраля 2016 11:36 Далласский клуб покупателей / Dallas Buyers Club (2013) HDRip от Scarabey | Сергей Визгунов.torrent

1573 kbps avg, 0.30 bit/pixel
Аудио: 48 kHz, AC3 Dolby Digital, 2/0 (L,R) ch.

1,45 Gb 2 15 февраля 2016 11:36 Далласский клуб покупателей / Dallas Buyers Club (2013) HDRip от Scarabey | Сергей Визгунов.torrent

755 kbps avg, 0.18 bit/pixel
Аудио: 48 kHz, MPEG Layer 3, 2 ch.

Бесплатно смотреть смешное видео про кошек
Создать видео коллаж онлайн бесплатно с музыкой
Сертификаты соответствия на строительные материалы скачать бесплатно
Видео онлайн бесплатно смотреть порнушка
Фиксики скачать все серии торрент mp4